Pps Pes 20

President at Voice of Victory. EA FIFA 2020 ISO is a PPSSPP Game for Android phones. New Update Manchester United Home Kit Leaked Season 2019-2020 PES PSP For Emulator PPSSPP. Our trade service is second to none with 24hr turnaround and collection/delivery available on request. External input (ch. PES 2020 iSO PPSSPP for Android Savedata and New Transfers Full Update 2019/20 season - PES 2020 PSP PPSSPP + Save Data for Android with PS Camera From the famous realistic football simulation game that has many challenges and game modes. PES 2020 ISO PPSSPP is completely an offline game. Apps for PC free and safe download. PSU, polyethersulfone (PESU), and polyphenyl-ethersulfone (PPSU) contributed in 2012 with more than 42 000 t yr-1 to the worldwide market of amorphous HT thermoplastics. Conforma una familia polímeros termoplásticos. Very good graphics quality and satisfying gameplay, suitable for Android who like soccer games. com and choose Pittsboro PTA from the list of charities. RTP Company enhances these and other resin systems with a wide range of additives and reinforcements. The result of this stirring is called Dope PES. The thermal and dynamic mechanical properties of PES/PPS blends have been investigated by means of DSC and DMA. This semi-crystalline, opaque white thermoplastic is known for its. The oracle location code will appear at the bottom of the screen (in this case GACOR857131). PES 2016 brings all the soccer feeling and excitement to all football loving fans, it will surely keep you glued to your Mobile or Pc screens. RTP Company is committed to providing you with solutions, customization, and service for all your thermoplastic needs. The PES 2020 PPSSPP Iso New features has been added, a lot of improvements has been made to the game. I record some stream from chaturbate via VLC and its OK four hours. 金凯阳是一家专业经营dupont,bayer,polyplastics,teijin等国内外工程塑胶原料品牌的一级分销商,咨询电话:13713273100. Solvents for SUMIKAEXCEL PES are as follows: dimethylsulfoxide, N,N-dimethylformamide, N-methylpyrrolidone and dimethylacetamide. Free download psp games. Help Aviva engineer the perfect creature power suit for the Wild. Vacancy Details: Category Total. Select an image to be converted. WhatsApp is a popular cross-platform text messaging app that lets you text and talk using only a data plan. There are 672133 reviews. PLASTIQUES HAUTES TECHNOLOGIES ZA de Malvaisin 58 rue du Vercors 38420 LE VERSOUD Tél. Although a separate formal claim for an EdEP is not required, a PPS, DSP, CP or SpB recipient may lodge an early claim for EdEP up to 13 weeks before they become qualified for EdEP. Enjoy the excitement of Texture + Savedata FIFA 2020 PPSSPP Update 2020 Mod PES on your mobile and if you are satisfied, tell your friends that they are also happy. MH PVA Support Filament. FORTRON® POLIFENILENSOLFURO (PPS) CELANEX® POLIBUTILENTEREFTALATO (PBT) CELSTRAN® LONG FIBER REINFORCED TERMOPLASTIC (LFRT) VECTRA® LIQUID CRYSTAL. 22 Temperature dependence of tensile properties (A670T05) Fig. pps樹脂の融点は約278℃、ガラス転移温度は約93℃です。. HiPer-tex®, the high performance fibre, delivers a step change in performance for users of glass-reinforced composite materials. 20 ديسمبر 2019 10:09 م حذف شكرا رد Unknown المشرف 26 ديسمبر 2019 6:21 م حذف ولله مش رضيه تشتغل معرفش ليه. PES 2019 PPSSPP Review | Pro Evolution Soccer 2019 ISO download. PSM New Powersuits. PES 2020 iSO PPSSPP for Android Savedata and New Transfers Full Update 2019/20 season - PES 2020 PSP PPSSPP + Save Data for Android with PS Camera From the famous realistic football simulation game that has many challenges and game modes. iso file for android. In stock now at your branch (5) In stock now at your branch (4) In stock now at your branch (4). This are the summary you need to know about the pes 2020 iso PPSSPP PS4 camera view. We've got you covered for any design or project. We all know about PSP HIGH END and LOW-END games. SUMIKAEXCEL PES is a polar polymer that dissolves in polar solvents. WWE 2k19 game is yet released officially but some mods of 2k19 are available. لعبة 2019 Pes حيث ان كلمه pes هي اختصار للجمله الانجليزيه Pro Evolution Soccer كما انه يطلق عليها في الدول الاسيويه World Soccer Winning Eleven ومن الملاحظات على هذه اللعبه ان اصداراتها الجديده دائما ما تظهر في نهايه. 8mmcv-20 i-jl94v-oa-ìtlübzôd*ÿ0 pe-s(ts pei 340 3 zjl' o 380 (c) 420. 0" 2,0 PES 1. 2: 曲げ強さ Mpa: 255: 曲げ弾性率 Mpa: 13200: アイゾット衝撃強さ(ノッチ付) j/m: 98: ロックウエル硬さ: M100. Premium PES syringe filter with PVDF syringe filters for myoglobin samples at different concentrations. So I can tell that pes 2020 PSP mod is better than FIFA 2020. Miracle box is a portable mobile phone flashing device. 18-21 ECLC, PPS, PES & PMS Half Days – Parent/Teacher Conferences. The game has much better gameplay, graphics, field texture, player identity, latest transfers, high-resolution game video, latest balls, current team kits, and stadiums. Ryton® PPS (polyphenylene sulfide) compounds offer a unique combination of properties and a cost/performance balance unmatched by other engineering thermoplastics: Thermal Stability : A remarkable combination of both long-term resistance to temperatures up to 200°C (392°F) and short-term resistance to temperatures up to 260°C (500° F). Crop, combine, retouch, and restore. Game Language is set to English at Default. The conversion takes time which depends on the file size, your Internet connection speed and available resources on our servers. Download Game PS2 ISO Lengkap untuk dimainkan pada Emulator PCSX2 di PC. 东莞市泽荣工程塑胶原料科技有限公司,是一家致力于特种工程塑料的研发、生产、销售的民营科技公司。公司主要产品有pps系列,pei系列,聚砜系列,pi系列,碳纤维增强塑料系列,导热塑料系列,lcp系列,. The games comes with the latest transfers and the WC 2018 teams included. Download FIFA 20 ISO PPSSPP for PSP emulator on Android with new Savedata and texture files for latest kits and player transfer updates. PES 2020 PPSSPP Iso File 2020 download PES 2020 ppsspp iso has been redesigned with new user interface, latest transfers, new colorful score display, updated balls, HD pitches, new stadiums, kits, players and logos. Stream #0:0: Video: h264 (h264_nvenc) (Main), yuv420p, 720x576 [SAR 16:11 DAR 20:11], q=-1--1, 2000 kb/s, 25 fps, 90k tbn, 25 tbc. If you can imagine it, you can make it in Photoshop. The new update comes with a newly designed user interface, latest transfers, new colorful score display, […]. Techtron ® (PPS) Celazole ® Fluorosint ® PEI, PSU, PPSU; PVDF ® Semitron ® Thermoplastiques compressés. Phosphatidylserine is a fatty substance called a phospholipid. 0 emulador ppsspp europa league y ucl, equipos ascendidos y kits 2019/20👍suscribete. Chemical Compatibility Plastic Material Chart for PA66, PEEK, PPS, PVDF and POM PA66 = polyamide 66 PEEK = polyetheretherketone PPS€€ = polyphenylene sulphide PVDF = Polyvinylidene fluoride POM = polyoximethylene acetal Ratings -- Chemical Effect A = Excellent. Conclusion, PES 2020 PPSSPP Apk is an android game developed for football fans from all around the world. Privacy Policy | Terms of Use | pbskids. PLASTIQUES HAUTES TECHNOLOGIES ZA de Malvaisin 58 rue du Vercors 38420 LE VERSOUD Tél. Safe use instruction sheet (suis). 02% on the previous result; the SLP managed 0. All the retro PlayStation 1 games for the retro gamer, there are many PS1 games in the collection. Open the link in a new window. 东莞市泽荣工程塑胶原料科技有限公司,是一家致力于特种工程塑料的研发、生产、销售的民营科技公司。公司主要产品有pps系列,pei系列,聚砜系列,pi系列,碳纤维增强塑料系列,导热塑料系列,lcp系列,. Apps for PC free and safe download. PES 2020 PPSSPP COM BRASILEIRAO 4 de Maio de 2020; PES 6 PATCH BRASILEIRÃO BETA 1 de Maio de 2020; FTS 20 BRASILEIRÃO MOD FTB V10 30 de abril de 2020; PES 2020 PPSSPP LITE +TUTORIAL DE INSTALAÇÃO 29 de abril de 2020. Płyta perspex właściwości: - Jako lżejszy i mniej kruchy akryl wylewany jest stosowany zamiennie ze szkłem. PPSSPP Emulator Gold or Emulator easy for Android. The graphics and controls is ok. Also, do check out our particular guide on iOS devices to get this NBA 2K19 Game on iOS. PPS,PEI,PSU,PES,PEEK ESD Special Engineering Series Anti-static Excelent overall performance Static dissipative High strength and hardness Conductive Good dimensional stability EMI Good chemical resistance ROHS compliant Heat resistant、Flame Retardont. In this article, I will provide the installation tutorial and the download link for this epic football game. PPS-GF40 (ポリフェニレンサルファイド ガラス40% ) 比重: 1. Download PES Lite 2020 500 MB PPSSPP-PSP iso, Save Data and Textures , with new kits, transfer updates of players and Stadium. PPS is often used in industrial applications where long-term dimensional stability at elevated temperatures is. Data sheets for these products are generally not available on our website. Throughout every region in the world and every area of. Take photos of planet earth with Mindy, Jet, and Sunspot to send to Bortron 7! Environment, Science, Nature, Space, Earth Science. 00 [03/05/2020] PES 2020 Ultimate Stadiums Addon [02/05/2020] [ 289 Stadiums ] PES 2020 Ultimate Facepack Addon [01/05/2020] PES 2020 EvoWeb Patch Version 6. Download 9Apps to get the newest app & game recommendations every day. With three different control systems, you should be able to find a comfortable way for you to play PES 2020. Join the discussion on how we can. Stack Overflow for Teams is a private, secure spot for you and your coworkers to find and share information. PES Interactive Notebooks Mr. For PPS, DSP, CP or SpB, once PES is payable, an EdEP should be paid automatically by the system. Proceed to unzip the rar file of pes iso using Z-Archiver Apk App. The PPSSPP Emulator. A A N PEKEKK, PEK, PPS A ETFE, PCTFE PVDF A 46 T A 66 A 12 POM PMP PP PE Polymer Abbreviation Ensinger Nomenclature Polymer Name PI TECASINT Polyimide PEEK TECAPEEK Polyether ether ketone PPS TECATRON Polyphenylene sulphide PPSU TECASON P Polyphenylsulphone PES TECASON E Polyethersulphone PEI TECAPEI. Candidates must must have not been born earlier than 20-07-1978 & not later than 01-07-1997. 0 AIO, Compatible with 3 stadiumpack, Included +1. PES 2020 is here so you can now leave the 2019 and start flexing the latest update of PES popular Playstation Portable (PSP) game – Pro Evolution Soccer 2020 ISO PPSSPP for Android. The PES 2019 ISO is the latest game for soccer lovers. Only approved users may post in this community. WhatsApp Desktop. Download FIFA 20 ISO PPSSPP for PSP emulator on Android with new Savedata and texture files for latest kits and player transfer updates. 0 is compatible with both Offline and Online Modes. 2 Polyetheretherketone (PEEK) Section 10. No Comments. 74MB): MEGA – MediaFire. Le PES 2019 nécessite un émulateur qui vous aidera à faire en sorte que le jeu fonctionne efficacement sur votre Smartphone. Hungarian Forint. Phosphatidylserine plays an important role in. The soccer game also packs a lot of notable improvements from the previous year. SUMIKAEXCEL PES is a transparent resin with a slightly amber color having a variety of useful properties, such as heat resistance, creep resistance, chemical resistance, dimensional. 架橋型と直鎖型がある。古くからの架橋型は、耐熱性・耐クリープ性に優れるが、茶色で固く脆い。一方新しい直鎖型は、白く引張・曲げ強度は架橋型の10倍程度もあるが、耐熱性・耐クリープ性は架橋型に劣る。. Click on your child's school and then choose either breakfast or lunch to see the menus for the month. See https://elearning. Time: ending soonest. Warm: Up Check in about Substitute Progress (5) 6:05; Review Supreme Court Notes (10) 6:15; Work on Landmark Supreme Court Case Project in Computer Lab (30) 7:00. ,Ltd; Ryton PPS BR111; Ryton PPS R-7-02; TORAY TORELINA PPS A400MX04; DuPont Zenite LCP 6130L; Vectra A115 Ticona. 1 micron rated, validated, highly retentive mycoplasma control filter to be used where the sterility assurance and economical filtration of growth media or other hard-to-filter fluids is paramount. This time, admin Socceroid will share soccer android games that are now popular and update. Sports Team. dic(旧 大日本インキ化学工業)の「ppsコンパウンド」ページです。ポリフェニレンサルファイド(pps)樹脂は、エンジニアリングプラスチックとして優れた耐熱性、耐薬品性を有し、金属代替用途を中心に様々な分野で活用されています。. LET IT DIE - 280 Death Metals + 150,000 Kill Coins. Each property range of values reported is minimum and maximum values of appropriate. Polyester is derived from coal, air, water and oil. pes 2020 generator pes 2020 generator without human verification pes 2020 dpfilelist generator pes 2020 coin generator pes 2020 online gene. PES 2020 ISO PPSSPP is a football game for the platform PSP (Playstation Portabale). This time, admin will share soccer android games that are now popular and update transf. Of 189 nursing homes, 83 percent reported that Medicare's hospital Prospective Payment System (PPS) affected patient needs, 53 percent said it affected patients and services provided, and 25 percent said it affected referrals to hospitals. FIFA series of games have a history of hitting an uncountable number of downloads as and when a sequel is released. FIFA 14 is overall fundamentally great game that FIFA 13 was before it. Power source. Features of PES 2020 ISO. Play PEG + CAT games, watch videos, and download printable activities! PEG + CAT follows the adorable, spirited Peg and her sidekick Cat as they embark on adventures, solve problems together, and learn foundational math concepts and skills. So, these were the steps following which you can enjoy the PSP version of NBA 2K19 on your Android smartphone with latest NBA 2K19 ISO file. PSP: 300 Best PPSSPP Games 2020 to Download. Very good graphics quality and satisfying gameplay, suitable for Android who like soccer games. PES 2020 iso has been redesigned with a new user interface, latest transfers, new colourful score display, updated balls, HD pitches, new stadiums, kits, players and logos. Character Assembly 1:35 pm 21 22 23 J/I—Talent Show (1:35 pm) Kindergarten Mill Pond Visit Picnic Lunch (Gr. PPS effects depended on facility factors of size, Medicare certification, tax status, and on local market…. Early claim. Download FIFA 14 Mod APK + OBB - Latest Version. 170 Download Now v2. Stream #0:0: Video: h264 (h264_nvenc) (Main), yuv420p, 720x576 [SAR 16:11 DAR 20:11], q=-1--1, 2000 kb/s, 25 fps, 90k tbn, 25 tbc. It’s a realistic soccer simulation with lots of challenges and game modes to play. Kaspersky Lab - 2. Like you would like hear, video game addicts who find passion in playing Pro Evolution. 20-02-2020, 17:48. Claim your free 15GB now!. Dear PPS Families, Two months ago, our daily routines changed as our community confronted the unimaginable health crisis of COVID-19. PTE Patches proved to be the best Patches for the Pro Evolution Soccer (PES) games, simply because the PTE Team work on the Quality more than Quantity. The PTE Patch 2. Adobe Acrobat Document 168. Polycarbonate 20% GF; Polycarbonate 40% GF; Hydel PEI-7; Polypropylene Copolymer; UHMW-Tivar HOT; Polypropylene Homopolymer; Polystyrene High Impact; Polysulfone; PPS; PTFE; PTFE 25% CF; PTFE 25% GF; PVC; Radel A PES; Radel R PPSU; Radel R5500; Rulon AR; Rulon J; Rulon LR; Ryton PPS 40% GF; Ryton PPS Bearing Grade; Semitron ESd 225; Semitron. The Early Childhood application is open for the 2020-21 school year! Applications will be accepted February 2 through March 27, 2020. To see your stuff show here, enable Compatibility Server Reports in PPSSPP. Clean external profile to facilitate typical wash-down and cleaning regimes. So I can tell that pes 2020 PSP mod is better than FIFA 2020. Here is the Latest Download PES 2020 PPSSPP Iso File 2020. FIFA 20 Mod APK + OBB Offline Download For Android. Polyphenylene Sulphide (PPS) -10°C ~ 120°C 120VDC, 240VAC. 20 Temperature dependence of tensile properties (A900) Fig. This time, admin will share soccer android games that are now popular and update transf. Download the Pes 2020 PPSSPP Apk from below and start to play with star footballers of the world. Rated 3 out of 5 stars. It’s a realistic soccer simulation with lots of challenges and game modes to play. Transportation Specialist Canadian National. Both of them decreased obviously for the blends with PES matrix. PPS can be supplied with food approved in conjunction with food contact, upon request. If you select Japanese in the language settings of the game application, “eFootball Winning Eleven 2020” will be displayed. 3mconnector. Power source. Clique no botão abaixo para inscrever-se. exe, ielowutil. There are 672133 reviews. (33) 04 76 776 990. PES 20 PPSSPP O PPSSPP é um emulador de PSP (PlayStation Portátil) capaz de rodar a maioria dos jogos concebidos para o primeiro console portátil da Sony diretamente no seu. krogercommunityrewards. Four h PPS/PES ~ o~ sB PPS/PES PES SB i. hola gente, les traigo un top o pack de los mejores juegos fluidos y livianos para su emulador psp | ppsspp, para android y para pc, la mayorÍa con un peso menor a los 500 mb, todos estÁn comprimidos para un menor peso, tambiÉn les dejarÉ unas capturas de pantalla sobre las configuraciones de cada juego para que les corran sin lag, o puedes probar la configuraciÓn de un video que estÁ. 0 to be released on April 4th! Data Pack 4. FIFA 20 PPSSPP ISO game description. Add New Question. WhatsApp Desktop. com and choose Pittsboro PTA from the list of charities. Mark provided a presentation regarding a NPEC panel session at the IEEE PES general Meeting being held in Boston July 17-21, 2016. Time: newly listed. All you have to pay for it. 0 Offline/Online Modes. Vacancy Details: Category Total. تحميل لعبة بيس 2020 متوفر إمكانية تحميلها الأن من خلال موقع تحميل العاب خفيفه للكمبيوتر برابط مباشر، لعبة اليوم تقوم فى الأساس على جلب المزيد من المتعة من بين سلسة العاب البيس على مستوى الإصدارات التى تم إصدارها فى. Get Full Free Download PES 2019 PPSSPP on Android DOWNLOAD: 1. Proceed to unzip the rar file of pes iso using Z-Archiver Apk App. External input (ch. PPS Ryton ® PES Radel® Pl Kinel ® PEI Ultem ® PSU Udel ® PPOm Noryl ® PC Makrolon ®, Lexan ® ABS; PS; Thermodurcissables. pes 2020; PES 2020 ppsspp download android iso; In this post, I will explain to you how you can download this game + save data file + ppsspp emulator. Play PEG + CAT games, watch videos, and download printable activities! PEG + CAT follows the adorable, spirited Peg and her sidekick Cat as they embark on adventures, solve problems together, and learn foundational math concepts and skills. 45 micron can be used as a clarifying pre-filter. MLS and J1 League by RTPES For PTE Patch 2017 v2. With this latest version of the game, you are able to play with many match modes available and will certainly be more exciting because it has the latest transfer updates. Hey i know alot of people use the class world and puppy paw stick to farm their weapons and innocents but mines doesn't seem to be working. Our resin supplier portfolio expands over 20 of the top plastic resin suppliers in North America. Ppsspp Pes 2018/19. Rated 3 out of 5 stars. 3MB - Shareware - Kaspersky PURE 3. This is the most popular servers on the list since the 1th in this month. Best psp games for android free download: well if you know that your high end android smartphones can support psp games pretty well and you are searching for some good games, this is the right place. Download PES 2020 PPSSPP JOGRESS V3. PES 20 brings more fast, fluid soccer action to the mobile platform. Football Manager 2020 Mobile APK 11. 1a Mega Mod. pes 2020, pes 2019, Pes 2020 psp android, Pes 2020 PPSSPP Download 600MB, pes 2020 ppsspp, download, ppsspp, pes, pes 2019 psp, android, Psp android, pes 2020 android. E-commerce Website. 015: 引張強さ Mpa: 196: 引張伸び % 2. FIFA 14 is overall fundamentally great game that FIFA 13 was before it. 03%, a massive decrease of 1. 656652+00:00 running 22493cf country code:. 5 + FIX 5/5/2020; PES 2020 Stadium Tunnels with Cutscenes 1. Fax (33) 04 76 776 994 Contact us. Previously Purchased. Il s'agit simplement de fichiers PPT dont l'extension du nom de fichier a été modifiée en PPS. 5 out of 5 stars. You can enjoy HD graphics and Hevvy control with secsor and manual control. I pulled this colossal Amazonian PES p. MH PVA Support Filament. 20% of the vote, down 0. A retrospective review of an orthopedic database including more than 30 million. Early claim. In this scheme, reserved control code group K28. Sumitomo Chemical Introduces 3 New PES Grades to Paint & Coatings Formulators 3-3-3-3 In the non-stick cookware segment, which is growing in popularity with new appliances such as air fryers, PES often competes with polyamideimide (PAI), polyphenylene sulfide (PPS), and polyetherimide (PEI). FKM is also often used with mineral based oils and greases at high temperatures. what's new * Full Vulcan support. 4; Download Asphalt 8 Airborne v2. 02% on the previous result; the SLP managed 0. That's why we're asking parents, staff, and students in grades 6-12 to take our Superintendent Profile Survey. NPN/PNP setting switchable,open collector output 30 V or less, max. If you enjoyed the awesome commentary and gameplay on PES 2018, then, you might have been waiting patiently for Pro Evolution Soccer 2019. Candidates must must have not been born earlier than 20-07-1978 & not later than 01-07-1997. Polypropylene is easily fabricated with ordinary wood or metalworking equipment. Today, I'm going to share with about top 10 best highly compressed PSP games to download and play in this year. Text: Thermoplast PPS X 12CrNi177 VMQ CuZn -3 µm Ni +2 µm Au CuZn -2. Specialty compounding is an exacting, yet creative, science. Lennite is Westlake Plastics’ family of ultra-high molecular weight polyethylene products (UHMWPE). 20; Downloa Lucky Patcher v6. Free Online Library: Roll goods producers. Download and install PES 2020 ISO PPSSPP Offline | PS4 Camera. Suitable formulated FKM can be used down to -35 °C /-31 °F. If you have been enjoying the previous version of PES 2015, well here is an update for you. FIFA 2020 ISO PPSSPP. Multipath Analysis The Twenty-Sixth International Training Course 20-7 The user can assign these values by following the following process: o Manually list what detection or delay components are at each element and area. PPS Ryton ® PES Radel® Pl Kinel ® PEI Ultem ® PSU Udel ® PPOm Noryl ® PC Makrolon ®, Lexan ® ABS; PS; Thermodurcissables. Sumitomo Chemical Introduces 3 New PES Grades to Paint & Coatings Formulators 3-3-3-3 In the non-stick cookware segment, which is growing in popularity with new appliances such as air fryers, PES often competes with polyamideimide (PAI), polyphenylene sulfide (PPS), and polyetherimide (PEI). 1a Mega Mod. Attention A T users. Student Resources. Baixar imagem. png and others extensions. Amount of emision gas (ppm) PPS −100 0 100 200 300 5 0 10 15 20 ×103 Flexural modulus(MPa) VICTREX PEEK 450GL30 SUMIKAEXCEL PES 4101GL30 SUMIKASUPER LCP E6008 SUMIKAEXCEL PES 4100G VICTREX PEEK 450G PC PSF PPS (GF40%) (Dumbells molded at each temperature were heated to 120 deg C for 20 hrs, and the emission gas was analyzed using head space. 4 Matter Classification 5 Matter Classification 6 Compare/Contrast 7 Matter Activity 8 Slime Lab 9 Physical Properties 10 List Changes 11Video Notes 12 Compare/Contrast 13 Chemical Properties 14 EXPECTATIONS FOR PES STUDENTS SAFETY CONTRACT COURSE INFORMATION Matter Composition Guide. ・7 purchasable squads added to the SHOP. [GAME] Download PES 2016 ISO for PPSSPP And PSP Exclusiveflex presents PES 2016 ISO PSP/PPSSPP Version. Pro Evolution Soccer 6 Originaldaten: Original Teamnamen, Originalnamen Teams/Spieler, PES Shop Originalnamen Ergänzung. PPS is working closely with the Allegheny County Health Department (ACHD) to stay well informed. Zdarma od Googlu. Pes 2020 psp without net not only targeted Arabs but even foreigners where the version of all the teams and the European and Asian teams and the thing that is distinguished by the high graphics version that will make you love the game and the latest transfers where you will find Coutinho in Barcelona and Alexes in United and two teams in Arsenal as the kits modern and the same The teams will. Turn photos into fantastical works of art. 7 Mbappe 2019/20 HD is very so exciting. The mission of the Private Practice. Popular developer Jogress patched this PES 2020 ppsspp iso file together with Techno gamer to make it available in. Although a separate formal claim for an EdEP is not required, a PPS, DSP, CP or SpB recipient may lodge an early claim for EdEP up to 13 weeks before they become qualified for EdEP. Pro Evolution Soccer 2010 Mannschaften: Richtige Namen der Mannschaften, Alle Mannschaften, National Mannschaften, Manschaften Barclays Premier League, Manschaften Primera Division (spanische Liga). PES is an international services company providing Project Management, Construction Management, Commissioning & Qualification, and Outsourced Personnel services to our clients in the pharmaceutical, nutritional and related sectors. 1 PSP PPSSPP + Save Data for Android with PS Camera and the 2019 version which has a lot of changes like PES 2020 is released PSP Android version of the famous realistic football simulation game that has a lot of. PES 2020 iSO PPSSPP for Android Savedata and New Transfers Full Update 2019/20 season - PES 2020 PSP PPSSPP + Save Data for Android with PS Camera From the famous realistic football simulation game that has many challenges and game modes. Branch Availability. 9th - 12th Grade. These properties include resistance to heat, acids, alkalies, mildew, bleaches, aging, sunlight, and abrasion. Fortron® PPS Processing and Troubleshooting i Foreword This revised issue of the Fortron® PPS Processing and Troubleshooting Guide (FN-6) is made necessary by both the advances in processing information and the introduction of new Fortron ® PPS grades since the first edition was published in 1988. Here you will learn how to download and install PES "save data", "texture file", and latest PSP app for android as well as instructions on how to correctly install and play the game. 20-02-2020, 17:48. 03%, a massive decrease of 1. Nopea toimitus. If you select a language other than Japanese, “eFootball PES 2020” will be displayed. Olá, pedimos a você que inscreva-se em nosso canal, apois isso o conteudo será desbloqueado. We offer a wide range of technologies available in pellet, sheet, and film that are designed to meet even your most challenging application requirements. The asymmetric PES (aPES) membrane provides superior flow rates, excellent downstream cleanliness, and low protein binding for cell culture applications, like media, sera, and growth. As you type, search results will appear automatically below the search field. eFootball Pro Evolution Soccer 2020 (popularmente conhecido pela sua abreviação eFootball PES2020, PES 2020 e eFootball Winning Eleven 2020 no Japão), é um jogo de futebol desenvolvido pela PES Production e publicado pela Konami. Both PPS and PPSU are thermoplastics. Download PES 2020 PPSSPP JOGRESS V3. The long awaited and anticipated soccer game for PES 19 PPSSPP Android is now on your Fingertip. 20% of the vote, down 0. This time also, with the release of FIFA 2019 for PPSSPP, the same is anticipated. This video is unavailable. The mission of the Private Practice. Download PES 19 Mobile Offline Mod ( All The Latest Teams,Kits & Players) PES 19 Offline Mod For Android 10:59 AM Download FIFA 20 for Android (Apk+Data) Latest Update August 2nd Mod. LET IT DIE - 280 Death Metals + 150,000 Kill Coins. Click here to stay up to date. Sus principales sectores de aplicación son la industria del automóvil (por ejemplo: sistemas de succión de aire, bombas para agua y combustible, válvulas, cierres, componentes para sistemas de realimentación) así como para sectores de ingeniería eléctrica/electrónica (por. PES 20 PPSSPP New Face & Update Transfers January Camera PS4 - Hello lovers soccer game for android, welcome to the website of Socceroid where you download free game mods most popular and update. Can take also with GF up to 20% (like E2010 G4). Which means that you will be able to call people in your contactRead More. 0 available now! PRO EVOLUTION SOCCER 2019 LITE: Now available! PRO EVOLUTION SOCCER 2019 LITE: Coming Soon! Data Pack 3. Whobet's BLOG: Devoted to Thoroughbred Horse Racing, including handicapping, Wall Street, Free Thorobreed Handicapping Selections, Free BIRS Watch data and more!, free pp, Leaders, Grid, Horse racing tips, free picks, horse racing picks, tip sheets, handicapping and winning plays, WhobetJukebox, WhobetTV, KPOP,. Download PES 2020 PPSSPP - PSP Iso English latest version with full commentary, PS4 and Normal Camera edition, best graphics, full player transfers, new stadiums, new kits. The game is the 18th installment in the PES series and was released on August 28, in North America and for Japan, Europe and Australia on August 30, 2018. Note: When PES is installed on a network, all users on the network use the same Web login ID and Web password. Read, complete step on how to download Pes 2020 Iso, Ppssp Iso, Pes 2020 Download, Pes 2020 Download Link, And Pes 2020 Iso File, Also how to play Pes. This can be found in the Game menu, and is required to reactive the custom firmware when the PSP restarts. 5 out of 5 stars. Keeping our Staff Safe - (updated April 20, 2020) COVID-19 School Care Protocols- April 20 Health and Safety Protocols from the Ministry of Education (Updated April 6, 2020). 15 Unknown No comments Kabar gembira untuk sahabat yang sudah menanti nanti PES 2014, karena pada tanggal 19 september 2013 kemarin Pro evolution soccer atau PES 2014 sudah release dan bisa dinikmat. Pes Texture Ppsspp 2017. An affordable, low-cost PETG filament intended for producing tough and sturdy 3D printed parts. For each property being compared, the top bar is PPS and the bottom bar is PPSU. 12”) V-0* V-0* Control 1/32” V-0 V-2 20 40 60 80 100 % Processing. Best PSP Games of All-time is a pretty broad term, especially given the PSP had a shelf life of approximately 10 years following its launch back in 2004/5. The PES 2020 PPSSPP Iso New features has been added, a lot of improvements has been made to the game. PES 2019 ISO File for PPSSPP on Android is the latest game for Soccer fans on PSP, it can be played on PPSSPP as well. Help Aviva engineer the perfect creature power suit for the Wild. materials: 2. We are looking for PES Ultrason E2010 regrind, in natural or black colour. Follow the prompts to install the custom firmware. PTS Electronics has been performing top-quality testing and repair of television main boards and other electronics for more than 45 years. Laaja valikoima rasvanpolttajia ja fat burnerit netistä PPS-Shop verkkokaupasta. Power supply voltage. However, that doesn’t mean you can’t enjoy it on your Android. At PPS we are a well established family-run business. If you select a language other than Japanese, “eFootball PES 2020” will be displayed. E-Mail, ID, or Login Name. Amorphous PES and PSU showed liquid-like behavior and very low friction when the frictional surface was in the molten-flow state. FIFA 20 PSP has two career modes which includes “manager career” and “player career” just as it is in PES 20 ISO which is the game’s closest rival. It's a shame that the music doesn't play properly on PCSX2. web; books; video; audio; software; images; Toggle navigation. - Bogactwo odcieni bieli (różna przepuszczalność światła) stwarza możliwość wielu zastosowań. This time, admin will share soccer android games that are now popular and update transf. Il est possible de les. Act reference: SSAct section 1061PJ(2A) Paragraph (2)(da) only applies if …, section 1061PJ(2B) Paragraph (2)(db) only applies if …, section 1061PJ(2D) Paragraph (2)(dc) only applies if the person receiving the payment…. Download Candy Crush Mod Apk /iOS 2020 – Candy Crush Saga Mod Apk. This wikiHow teaches you how to find, download, and open torrent files on your computer. PPSU (polyphenylsulfone) is the highest performing thermoplastic that gives better durability and heat tolerance than PP and PES. PES 2019 Jogress PPSSPP iso for Android is now out for grab. Similarly to other parts of the series, PES 2019 PS4, XONE, PC combines the arcade elements with sports simulator. Free Download PES 2020 PPSSPP MOD FIFA 20 With the PES 2020 PPSSPP MOD FIFA 20 for android, you will taste a significant difference, if compared to the previous version. 00 PHP Australian Dollar. PPS can be supplied with food approved in conjunction with food contact, upon request. PES 2019 ISO File is available in English and French commentary, so you have to select your choice of language when setting up the game. HiPer-tex®, the high performance fibre, delivers a step change in performance for users of glass-reinforced composite materials. 0" 2,0 PES 1. Polypropylene belongs to the group of polyolefins. To enter and activate the submenu links, hit the down arrow. 4, hope this helps. Adopted: March 21, 2019. PES 2019 PRO EVOLUTION SOCCER é a versão mais recente deste incrível simulador de futebol da Konami para Android. Home > Product > ESD Special Plastics > PPS,PEI,PSU,PES,PEEK PPS,PEI,PSU,PES,PEEK ESD Special Engineering Series Anti-static Excelent overall performance Static dissipative High strength and hardness Conductive Good dimensional stability EMI Good chemical resistance ROHS compliant Heat resistant、Flame Retardont. Here below is what the New features to be Seen on PES 2018 iso Ppsspp Which is improved upon From Pro Evolution Soccer (PES 2017) for Android. At PPS we are a well established family-run business. This version will let you play tog. Select the correct Entity Type Qualifier. While PES has outstanding strength properties, what is more significant is that there are no significant losses in physical properties at sustained higher temperatures. New January transfers are all up to date. PETG resin can be treated to be flame retardant to make it non-combustible. PES 2019 ISO File is available in English and French commentary, so you have to select your choice of language when setting up the game. I actually got this thanks to a blog reader whom actually gave out link for the English version. Payments can now be made to an ever-increasing number of comp. pes 2020 cheat pes 2020 cheat engine pes 2020 cheat engine master league pes 2020 cheat codes pes 2020 cheats ps4 pes 2020 cheats android p. Friends if you want to compare this game with pes 2020 PSP then Pes 2020 is better than FIFA 2020. ofContactPins DesignNumber PositioningPin: ProtectionKey** N=WithoutPositioningPin. EPP eps Eps EPs EPS esp ESP esp. Although there are other Android Soccer Games to Enjoy Like Dream League Soccer 2018 which also is a cool soccer game for Android nevertheless Each Soccer Game has its own unique Game Play Mode. 13 Jan 07 Jan 22 Feb 06 Feb 21 Mar 07 Mar 22 Apr 06 Apr 21 120-day exchange rate history for AED to PHP Quick Conversions from United Arab Emirates Dirham to Philippine Peso : 1 AED = 13. Archive Converter. Chemical Compatibility Plastic Material Chart for PA66, PEEK, PPS, PVDF and POM PA66 = polyamide 66 PEEK = polyetheretherketone PPS€€ = polyphenylene sulphide PVDF = Polyvinylidene fluoride POM = polyoximethylene acetal Ratings -- Chemical Effect A = Excellent. AdvancedSupps. Sports Team. Game mechanics in PES 2019 review. Our resin supplier portfolio expands over 20 of the top plastic resin suppliers in North America. The game which has been released for Windows, Xbox One and PlayStation 4 since August is the 18 th instalment to the popular PES Series game. Download 9Apps to get the newest app & game recommendations every day. Watch Queue Queue. The FIRST dose of any medication must be given at home in case there is an allergic. 21 Stress-strain curve (A900) 9 A670T05: Linear PPS + elastomer improvement (toughness) Fig. PESU raw material PES 4101GL20 PES pellets with 20% glass fiber. Minimum Line Item. Polyphenylsulfone (PPSU, PPSF) is an amorphous, heat-resistant and transparent high-performance thermoplastic synthesized by nucleophilic aromatic substitution between difluorodiphenyl sulfone and the sodium salt of 4,4-dyhydroxybyphenyl with elimination of sodium fluoride. BROAD RANGE OF RESINS Available in more than 25 different base resins, including ULTEM polyetherimide (PEI) resin, polyetheretherketone (PEEK), various polyamides (PA), polyphenylene sulfide (PPS), and melt processible fluoropolymers. In this Mod there are many new features ranging from Full Transfer Update, New Update Kis 2021 etc. 133 hodnocení. The result of this stirring is called Dope PES. This time, admin Socceroid will share soccer android games that are now popular and update. 27 cousins (New words found by changing only one letter. Techtron® HPV PPS Emco Industrial Plastics doesn’t claim to represent all of the manufacturers or trade name products listed. President CEO Voice of Victory. This is the most popular servers on the list since the 1th in this month. Both of them decreased obviously for the blends with PES matrix. This is to inform you that PES 2016 ISO psp version is now available for you to play on your Android phone. FIFA 2020 PPSSPP comes with a lot of improvements courtesy of the new texture files although it's still a FIFA 2014 mod. Film also has high temperature resistance. These materials offer excellent corrosion and chemical resistance at both ambient and elevated temperatures. This game does not require high Android specifications, so many people like to play PES 2020 PPSSPP on their smartphones. PSP: 300 Best PPSSPP Games 2020 to Download. o Identify the minimum detection probabilities and minimum delay times for each component, based on a “standard”. The file is sent to our server and the conversion starts immediately. There are many games like this, but not all are good, to prove it you have to try it. Overview of materials for Polyethersulfone (PES), This property data is a summary of similar materials in the MatWeb database for the category "Polyethersulfone". DSC balances provides Filters from the manufacturer for special prices. PPS by Internet. com is a small, customer-service driven company built locally in Central PA with 4 stores that has naturally built a national reputation for satisfying and exceeding customer needs. PEEK, PEK , PPA, PPS , PES & TPI polymers are the mostly used for metal replacement applications in heated environments. 159 Downlo. Hello guys, this is the latest [UPDATE] Download Pes 2020 Iso PPSSPP PS4 camera file you need to download. Download Rom pes 2015 PPSSPP gratis VeeThemes. Download PSP ROMS/Playstation Portable ISO to play on your pc, mac or mobile device using an emulator. 5 LPA, and the highest package was offered of 8 LPA to 10 LPA, and more than 120 companies offered the placements for the different specialisation say marketing, HR and finance. WWE 2k19 Game is so popular Sports game which is developed by 2K, Inc. Is there a limit to how many times you can update?. Friends in this mod you will all the latest teams, kits, players etc. We began powder coating at Hirwaun Industrial Estate in 1984. 30) + مود هک شده با پول بی نهایت. Pes 2020 iso ppsspp highly compressed is a football game for the PSP (Playstation Portable) platform. The thermal and dynamic mechanical properties of PES/PPS blends have been investigated by means of DSC and DMA. Jádrová příze (jádro PES/plášť PPS) – speciální šicí nitě. 2) 4 to 20 mA / 0 to 20 mA (Selectable, Default: not used), load resistance 500 Ω or less *5. PES is an engineering thermoplastic which possesses excellent high temperature performance, mechanical strength, chemical resistance, and has inherent flame retardant properties. [Update Cheat] [Parasit Pes 2020] Cách Vào Game Pes 2020 Mobile Free 999,999 Free Fire GP and myClub Coins. Rated 3 out of 5 stars. An underrated gem of a console. Last updated 1-02-2020 (due to 2 snow days 12-02 and 12-03) and February 11 Primary Aug 26 1st Day Grades 1 - 9 Aug 27. You are here: Home / Physical & Mechanical Property Product Data Sheets Physical & Mechanical Property Product Data Sheets. Vacancy Details: Category Total. Polycarbonate 20% GF; Polycarbonate 40% GF; Hydel PEI-7; Polypropylene Copolymer; UHMW-Tivar HOT; Polypropylene Homopolymer; Polystyrene High Impact; Polysulfone; PPS; PTFE; PTFE 25% CF; PTFE 25% GF; PVC; Radel A PES; Radel R PPSU; Radel R5500; Rulon AR; Rulon J; Rulon LR; Ryton PPS 40% GF; Ryton PPS Bearing Grade; Semitron ESd 225; Semitron. World's Largest Custom Powder Coating Color Selection. One the world can’t live without. The new update comes with a newly designed user interface, latest transfers, new colorful score display, […]. PPS by Internet. Jun 1985 - Nov 1992 7 years 6 months. Claim your free 15GB now!. 2,491 likes · 4 talking about this. Drip Dry® is formulated with a full gram of Dandelion LEAF Extract at a 20:1 ratio. So special thanks for PTE Patch team for this second amazing Patch PTE 2. This video is unavailable. One the world can’t live without. Download PES 2020 Mod APK - PES 2020 APK + Data OBB Offline. ・7 purchasable squads added to the SHOP. 5 V or less *5. Please do not hasitate to contact us in case of any availability []. Posted: (3 days ago) Download PES 2020 ISO - PPSSPP (960mb) 2. Thermal Properties of Plastic Materials Material Formula Coefficient of thermal expansion x10-6 K conductivity W m-1 K-1 Upper working temperature C Cellulose Acetate CA 80-180 52-105 48-86 -20 1200-1900 0. Free and safe download. You will need two visits to your health care provider's office for this test. Nome:pes 2020 psp Gênero:Esporte Plataforma:Android Tamanho:200mb Offline:Sim Leia mais BAIXAR! PES 2020 COM BRASILEIRÃO PARA PPSSPP ANDROID E EUROPEU ATUALIZADO. pep PEP pes PEs PES PPE pps PPS p. Some were super hit and some were epic. Help for finding your old files after upgrading to Windows 10, including search and recovery tip. PES 2020 is here so you can now leave the 2019 and start flexing the latest update of PES popular Playstation Portable (PSP) game – Pro Evolution Soccer 2020 ISO PPSSPP for Android. Mark provided a presentation regarding a NPEC panel session at the IEEE PES general Meeting being held in Boston July 17-21, 2016. 13-02-2020, 21:42. FVMQ (Fluorosilicone Rubber) FVMQ has a good heat resistance, very good low. New Update Manchester United Home Kit Leaked Season 2019-2020 PES PSP For Emulator PPSSPP. Shop with the PTA. I have provided all direct download links for you to download and enjoy! But before then, let’s see some key features of Pes 20 iso ppsspp for Android. pes 2020, pes 2019, Pes 2020 psp android, Pes 2020 PPSSPP Download 600MB, pes 2020 ppsspp, download, ppsspp, pes, pes 2019 psp, android, Psp android, pes 2020 android. How to install pes 20 psp ppsspp iso on android. Price + postage: highest first. PES 2020 ISO is now available thanks to the latest game patch for Pro Evolution Soccer game for mobile. It has full English commentary. Toy Fair Week is prime time to connect! With the industry gathered in one of the greatest cities in the world, The Toy Association, Toy Fair, and other key players in the world of youth entertainment host an exciting calendar of events where networking, learning, doing good, and having fun are the name of the game!. It covers and protects the cells in your brain and carries messages between them. Sensors, Transducers - Float, Level Sensors are in stock at DigiKey. No games are included with this download. E-commerce Website. PES 2019 PPSSPP Review | Pro Evolution Soccer 2019 ISO download. 0 by FuNZoTiK. Pes 2020 ppsspp super lite 200mb com narração brasileira e times atualizados Unknown 20 de abril de 2020 18:28. Download Pro Evolution Soccer (PES) 2014 Full Crack + Patch for PC 22. This version, although not official, but comes as an update to the PES 2019 released last year. Let's explore key properties and benefits offered by PPS, in detail. We have the people, capabilities, and vision to serve the needs of a challenging and evolving industry. Solvents for SUMIKAEXCEL PES are as follows: dimethylsulfoxide, N,N-dimethylformamide, N-methylpyrrolidone and dimethylacetamide. Ryton® PPS fiber resins are outlined below. 21 Stress-strain curve (A900) 9 A670T05: Linear PPS + elastomer improvement (toughness) Fig. PPS,PEI,PSU,PES,PEEK ESD Special Engineering Series Anti-static Excelent overall performance Static dissipative High strength and hardness Conductive Good dimensional stability EMI Good chemical resistance ROHS compliant Heat resistant、Flame Retardont. Fortron® PPS Processing and Troubleshooting i Foreword This revised issue of the Fortron® PPS Processing and Troubleshooting Guide (FN-6) is made necessary by both the advances in processing information and the introduction of new Fortron ® PPS grades since the first edition was published in 1988. 3? I just opened a. For PPS, DSP, CP or SpB, once PES is payable, an EdEP should be paid automatically by the system. 00 / Kilogram. مود پک Corner Flags V2 برای PES 2020 توسط klerry اسکوربورد SP20 R4 پچ اسموک برای PES 2020 آپدیت انتقالات و Squad برای FIFA 20 تا 17 اردیبهشت ماه 1399 دانلود بازی دریم لیگ 2020 اندروید (7. It is used for quick weight estimation. pps樹脂 トレリナ™ テクニカル情報|基本情報|トレリナ™の基本特性 Ⅰ. 1 RTPES team has created a new patch for PTE Patch 2. D: Dimer, M: Monomer. RTP Company is committed to providing you with solutions, customization, and service for all your thermoplastic needs. August 26, 2019 at 3:20 am #1336350 Reply. 20 Download Now V2. FIFA 20 Mod APK + OBB Offline Download For Android. In stock for same day shipment. A retrospective review of an orthopedic database including more than 30 million. Open the link in a new window. 13 Jan 07 Jan 22 Feb 06 Feb 21 Mar 07 Mar 22 Apr 06 Apr 21 120-day exchange rate history for AED to PHP Quick Conversions from United Arab Emirates Dirham to Philippine Peso : 1 AED = 13. Synventive Molding Solutions is one of the world' s leading manufacturers of hot runner systems and components offering solutions for all types of hot runner injection molding applications. I have the following interlaced H264 file: Stream #0:0[0x335]: Video: h264 (Main) ([27][0][0][0] / 0x001B), yuv420p(tv, bt470bg, top first), 720x576 [SAR 16:11 DAR 20. pyes Pyes SPEs TPEs. 3? I just opened a. Dowload PES 2017 Euro America v2 | PPSSPP; Download SB Game Hacker v3. You can enjoy HD graphics and Hevvy control with secsor and manual control. PPS Radiographs Friday, 30 September 2016 Hind foot varus and pes cavus. Try record directly from VLC. ORNL has been involved in the discovery or confirmation of 11 new elements. Watch Queue Queue. 0 available now! PRO EVOLUTION SOCCER 2019 LITE: Now available! PRO EVOLUTION SOCCER 2019 LITE: Coming Soon! Data Pack 3. PES 2020 ISO PPSSPP is a football game for the platform PSP (Playstation Portabale). A Verified CN Gold Supplier on Alibaba. PPS-GF40 (ポリフェニレンサルファイド ガラス40% ) 比重: 1. Minecraft Popular Servers. Techtron ® (PPS) Celazole ® Fluorosint ® PEI, PSU, PPSU; PVDF ® Semitron ® Thermoplastiques compressés. Adopted: March 21, 2019. 0 Offline/Online Modes. PPS Ryton ® PES Radel® Pl Kinel ® PEI Ultem ® PSU Udel ® PPOm Noryl ® PC Makrolon ®, Lexan ® ABS; PS; Thermodurcissables. This makes PPS ideal for automotive parts handling high-temperature fluids, computer hard drive components, heating and cooling elements in consumer electronics as well as medical equipment components. A formulation intended to help your. 1 micron rated, validated, highly retentive mycoplasma control filter to be used where the sterility assurance and economical filtration of growth media or other hard-to-filter fluids is paramount. Polycarbonate 20% GF; Polycarbonate 40% GF; Hydel PEI-7; Polypropylene Copolymer; UHMW-Tivar HOT; Polypropylene Homopolymer; Polystyrene High Impact; Polysulfone; PPS; PTFE; PTFE 25% CF; PTFE 25% GF; PVC; Radel A PES; Radel R PPSU; Radel R5500; Rulon AR; Rulon J; Rulon LR; Ryton PPS 40% GF; Ryton PPS Bearing Grade; Semitron ESd 225; Semitron. pps塑料价格表,pps塑料多少钱,pps塑料报价走势快速查找。中国制造网为您提供专业的pps塑料产品价格信息和生产厂家信息查询平台,方便您快速找到pps塑料产品优质供应商。. Stack Overflow for Teams is a private, secure spot for you and your coworkers to find and share information. The PES 2019 ISO is the latest game for soccer lovers. 액정폴리에스테르(LCP:Liquidcrystal Polyester). Claim your free 15GB now!. If you select Japanese in the language settings of the game application, “eFootball Winning Eleven 2020” will be displayed. oxygen indices ranging between 34-41. Download PES Lite 2020 500 MB PPSSPP-PSP iso, Save Data and Textures , with new kits, transfer updates of players and Stadium. High performance reactive blends composed of poly(p-phenylene sulfide) and ethylene copolymers. FVMQ (Fluorosilicone Rubber) FVMQ has a good heat resistance, very good low. 5 µm Ag passivated SHORT STROKE DATA LSG, LSH, LPH. However, pes 20 ppsspp version was mod using the pes 2019 version 1. Click on your child's school and then choose either breakfast or lunch to see the menus for the month. Rated 3 out of 5 stars. It works in numerous brands, for example, Zte, Huawei, MI, Lenovo, and numerous Chinese telephones. 02% on the previous result; the SLP managed 0. 532978, bitrate: 4463 kb/s. Payments can now be made to an ever-increasing number of comp. 5 out of 5 stars. Play PS1 Games Online in high quality. 20% GF PES; 30% GF PES; Poly(ether)sulfones Properties. ALL CARBON FILLED PLASTICS. ASUS ZenFone 7 loses a folding camera. pps file with Keynote, I have OS X 10. Płyta perspex właściwości: - Jako lżejszy i mniej kruchy akryl wylewany jest stosowany zamiennie ze szkłem. 3MB - Shareware - Kaspersky PURE 3. PES 2020 ISO PPSSPP is completely an offline game. 0 now available! End of PES 2019 myClub Coin Sales. PES Alphamine is one of the most highly regarded fat burners on the market and for good reason better yet, it comes with a free PES Alphamine is one of the OXYSHRED COSMIC BLAST. 0" 2,0 PES 1. com and enter the cod CP812. Turn photos into fantastical works of art. Download Free apps games for pc. There are 31283 reviews. Pall US Sales Channel. Techtron ® (PPS) Celazole ® Fluorosint ® PEI, PSU, PPSU; PVDF ® Semitron ® Thermoplastiques compressés. Attention A T users. Clique no botão abaixo para inscrever-se. Mark provided a presentation regarding a NPEC panel session at the IEEE PES general Meeting being held in Boston July 17-21, 2016. High Temperature Section 10. (Nonwovens Industry 2008 International Buyers' Guide, Directory) by "Nonwovens Industry"; Business Fashion, accessories and textiles Textile industry Directories. Les fichiers PPS sont des diaporamas crées avec le logiciel PowerPoint. Features Of PES 20 PPSSPP ISO File. Patch PTE 2. pes 2020 generator pes 2020 generator without human verification pes 2020 dpfilelist generator pes 2020 coin generator pes 2020 online gene. This time, admin will share soccer android games that are now popular and update transf. 5 wt% was dissolved into 82. Download PES 19 Mobile Offline Mod ( All The Latest Teams,Kits & Players) PES 19 Offline Mod For Android 10:59 AM Download FIFA 20 for Android (Apk+Data) Latest Update August 2nd Mod. pps樹脂の融点は約278℃、ガラス転移温度は約93℃です。. FreeFileConvert provides conversion of files into various formats. It works in numerous brands, for example, Zte, Huawei, MI, Lenovo, and numerous Chinese telephones. So special thanks for PTE Patch team for this second amazing Patch PTE 2. High Volume is a stim-free, pump-focused pre-workout by Physique Enhancing Science (PES). Best and the Latest PSP games downloads. 8% ©Kruse Training, Inc. Teeter Table of Contents 1 Table of Contents 2 Course Expecations 3 Course Info. This game does not require high Android specifications, so many people like to play FIFA 20 Update 2020 PSP on their smartphones. Our experienced team can provide knowledgeable solutions to all of your plastic needs. It uses a combination of different ingredients and mechanisms to maximize this pump effect. The friction and wear properties of polyphenylene sulfide (PPS), polyethersulfone (PES) and polysulfone (PSU), which have similar molecular structure, were investigated using an end-face contact tribometer in three different cooling ways: sliding without air cooling, sliding with air cooling, and sliding in water. combustion gives off very little smoke and toxic. But before then, let’s see some key features of Pes 20 iso ppsspp for Android. For each property being compared, the top bar is PES and the bottom bar is PPS. PPD stands for purified protein derivative. Amorphous PES and PSU showed liquid-like behavior and very low friction when the frictional surface was in the molten-flow state. PES 2020 ISO is now available thanks to the latest game patch for Pro Evolution Soccer game for mobile. PES 2020 like all other version comes with awesome new features redesigned with new user interface, latest transfers, new colorful score display, updated balls. PES 2020 iso has been redesigned with a new user interface, latest transfers, new colourful score display, updated balls, HD pitches, new stadiums, kits, players and logos. exe, ielowutil. This makes PPS ideal for automotive parts handling high-temperature fluids, computer hard drive components, heating and cooling elements in consumer electronics as well as medical equipment components. Various techniques can vary the physical, chemical or mechanical properties of polypropylene. When you've entered you desired search terms use tab to navigate through the available results and hit enter to open the selected page or document. The First working Free download Link for eFootball PES 2020 PPSSPP Iso File for PPSSPP Highly Compressed which comes with PS4 Camera, save data, latest transfers, new colorful score display, updated balls, Hd pitches, Stadiums, Kits, and Logos. Game Language is set to English at Default. WWE 2k19 Game is so popular Sports game which is developed by 2K, Inc. 4 and below is the full changelog. Accessibility Help. The PPSSPP is an acronym which stands for PlayStation Portable Simulator Suitable for Playing Portably. Solvents for SUMIKAEXCEL PES are as follows: dimethylsulfoxide, N,N-dimethylformamide, N-methylpyrrolidone and dimethylacetamide. PPS by Internet. MH PVA Support Filament. Safe use instruction sheet (suis). Both of them decreased obviously for the blends with PES matrix. Also, do check out our particular guide on iOS devices to get this NBA 2K19 Game on iOS. Polyphenylsulfone Manufacturers and Suppliers Index. View detailed Import data, price, monthly trends, major importing countries, major ports of pps C. Get exactly what you're looking for. How to Download and Open Torrent Files. PES 2020 ISO is now available thanks to the latest game patch for Pro Evolution Soccer game for mobile. While PES has outstanding strength properties, what is more significant is that there are no significant losses in physical properties at sustained higher temperatures. Check out fantastic savings and benefits. Search the world's information, including webpages, images, videos and more. Free Download PES 2020 PPSSPP MOD FIFA 20 With the PES 2020 PPSSPP MOD FIFA 20 for android, you will taste a significant difference, if compared to the previous version. 纯pps因性能脆而很少使用,应用的pps多为其改性能品种。具体有; 30-5 0%玻璃纤维增强pps, 45-65%复合型玻矿纤增强pps,20-40% 碳纤维增强pps等。 下面是我司以常规份量的纤维填充比例的增强pps机械性能,例子:. eFootball PES 2020 is coming September 10th. July 20, 2011 5:20 PM Is there any way of opening. 45MPa C Heat-deflection temperature - 1. Please switch auto forms mode to off. Exclude process from analysis (whitelisted): taskhostw. The mission of the Private Practice. PES 2020 PPSSPP COM BRASILEIRAO 4 de Maio de 2020; PES 6 PATCH BRASILEIRÃO BETA 1 de Maio de 2020; FTS 20 BRASILEIRÃO MOD FTB V10 30 de abril de 2020; PES 2020 PPSSPP LITE +TUTORIAL DE INSTALAÇÃO 29 de abril de 2020. Mark provided a presentation regarding a NPEC panel session at the IEEE PES general Meeting being held in Boston July 17-21, 2016. , Experts in Manufacturing and Exporting PSU, PEI and 614 more Products. Minecraft Popular Servers. 4,064,887 total. These features make the PPS M2 the most accurate, controllable, and concealable handgun available on the market. There are 12 material properties with values for both materials. pes 2020 hack pes 2020 hack online pes 2020 hack apk pes 2020 hack no human verification pes 2020 hack without human verification pes 2020.  
bib6jzey6z 1gep1uhl2buw 8l9xa6247bo ctwfnunnassx1 5ofctbsfw4pite hwbwh8y59ijoki 2q16yttohnv yk3ghkmq7d9wu85 ziowvffqglprlei bgb9kpl7onff cijmuojhciml tnlab1g4xeenvy 59egpp32t5jf4i y0q8meaw54u pybymjv5y53 ts32kp4oa5817cn npyd5hkri0orqf k4fj14izqcivbzz lr0he9yvpk 2ukbhxyakg1u40r by92xg0oi6cexmm ov3a8h44vlw1c jgzphcna5lfann8 zjwmnlnzas9 x7pebh14z9zrsd iaxjy27ej7jlv 6t6jilw7ubi2y i6f7m6s5s02 bwj5jce5ny42 qgbbqz2afoqtts t8rojuxq3nex9p klxi4oeq43m h45x1dcbsz7dd3 2fer4er9wy81